<?xml version="1.0" standalone="no"?>
<!DOCTYPE svg PUBLIC "-//W3C//DTD SVG 1.1//EN" "http://www.w3.org/Graphics/SVG/1.1/DTD/svg11.dtd" >
<svg xmlns="http://www.w3.org/2000/svg">
<metadata>
Created by FontPrep 20130207 at Thu Jun 12 09:41:09 2014
 By Anton McConville
copyright missing
</metadata>
<defs>
<font id="04b530a8db6e0f4a0fdb83697b7ace5f" horiz-adv-x='1024' >
  <font-face 
    font-family="OrionIconFont-Regular"
    font-weight="400"
    font-stretch="normal"
    units-per-em="2048"
    panose-1="0 0 5 0 0 0 0 0 0 0"
    ascent="1664"
    descent="-384"
    x-height="1280"
    cap-height="1600"
    bbox="-0.450704 -424 2076 1664"
    underline-thickness="100"
    underline-position="-100"
    unicode-range="U+0020-007A"
  />
<missing-glyph horiz-adv-x="1000" 
d="M100 1210v-1020l340 510zM160 100h680l-340 510zM560 700l340 -510v1020zM500 790l340 510h-680zM0 0v1400h1000v-1400h-1000z" />
    <glyph glyph-name=".notdef" horiz-adv-x="1000" 
d="M100 1210v-1020l340 510zM160 100h680l-340 510zM560 700l340 -510v1020zM500 790l340 510h-680zM0 0v1400h1000v-1400h-1000z" />
    <glyph glyph-name=".null" horiz-adv-x="0" 
 />
    <glyph glyph-name="nonmarkingreturn" horiz-adv-x="682" 
 />
    <glyph glyph-name="space" unicode=" " horiz-adv-x="1200" 
 />
    <glyph glyph-name="one" unicode="1" 
d="M1920 308v-512h-1792v512h256v-256h1280v256h256zM556 772l282 4l-6 568q0 62 48 96t96 38l48 4q121 0 171 -69q21 -29 21 -67l2 -574l274 4l-464 -604z" />
    <glyph glyph-name="two" unicode="2" 
d="M1464 818q0 250 -178 428t-428 178t-428 -178t-178 -428t178 -428t428 -178t428 178t178 428zM52 818q0 334 236 570t570 236t570 -236q214 -214 234 -517t-162 -539l6 6l570 -570l-190 -192l-570 572l28 28q-236 -182 -539 -162t-517 234q-236 236 -236 570z" />
    <glyph glyph-name="three" unicode="3" 
d="M1282 -244q280 82 464 312t198 528h-410q-6 -266 -74 -489t-178 -351zM1092 596v-864q142 52 238 295t102 569h-340zM990 596h-374q8 -346 114 -595t260 -277v872zM514 596h-410q14 -298 198 -528t464 -312q-110 128 -178 351t-74 489zM1534 698h410q-20 294 -203 520
t-459 306q110 -128 177 -346t75 -480zM766 1524q-276 -80 -459 -306t-203 -520h410q8 262 75 480t177 346zM1092 698h340q-8 322 -104 561t-236 291v-852zM990 698v860q-152 -28 -259 -273t-115 -587h374zM1024 1664q424 0 724 -300t300 -724q0 -278 -137 -514t-373 -373
t-514 -137t-514 137t-373 373t-137 514q0 424 300 724t724 300z" />
    <glyph glyph-name="four" unicode="4" 
d="M1040 1204q64 0 109 -46t45 -108q0 -24 -10 -50l216 -216q26 10 50 10q64 0 109 -45t45 -109t-46 -109t-109 -45t-108 45t-45 109q0 22 10 46l-198 198v-518q86 -44 86 -136q0 -62 -45 -108t-109 -46t-109 46t-45 108q0 92 86 136v548q-86 44 -86 136q0 20 10 46
l-144 144l-600 -602l888 -888l888 888l-888 890l-192 -192l144 -142q34 10 48 10zM2064 640q0 -60 -42 -102l-880 -880q-42 -42 -102 -42t-102 42l-880 880q-42 42 -42 102t42 102l880 880q42 42 102 42t102 -42l880 -880q42 -42 42 -102z" />
    <glyph glyph-name="five" unicode="5" 
d="M252 -110h1104l-552 956zM1040 1254l-158 -272l632 -1092h314zM2064 -246h-2048l1024 1774z" />
    <glyph glyph-name="A" unicode="A" 
d="M1920 128v-256h-1792v256h1792zM1920 768v-256h-1792v256h1792zM1920 1408v-256h-1792v256h1792z" />
    <glyph glyph-name="B" unicode="B" 
d="M1044 262q160 0 272 113t112 271t-112 271t-272 113t-272 -113t-112 -271t112 -271t272 -113zM2048 512h-376q-13 -82 -27 -111q-15 -29 -23 -44q-7 -15 -46 -67l280 -278l-184 -182l-286 282q-4 -4 -20 -14t-21 -14t-20 -12t-22 -12t-22 -11t-27 -10t-33 -10t-69 -11
v-402h-256v402q0 6 -93 40t-121 54l-272 -282l-180 180l280 280q-6 10 -24 36q-26 38 -43 75t-25 111h-418v256h418q11 87 29 123q19 35 23 43t20 31t20 31l-282 282l178 182l276 -282q28 20 121 54t93 40v392h256v-392q24 -2 45 -7t36 -8t33 -11t26 -10q13 -3 47 -26
l24 -16q21 -14 23 -16l292 282l182 -182l-282 -282q4 -8 20 -31t21 -31t16 -29t15 -37t11 -42t11 -58h376v-256z" />
    <glyph glyph-name="C" unicode="C" 
d="M726 316h596q272 0 435 -141t163 -457h-1792q0 316 163 457t435 141zM1024 664q-186 0 -317 131t-131 317t131 317t317 131t317 -131t131 -317t-131 -317t-317 -131z" />
    <glyph glyph-name="D" unicode="D" 
d="M1444 520q-98 0 -196 38l-732 -718q-72 -72 -167 -81t-155 50t-51 152t83 165l732 718q-40 90 -40 190q0 214 154 365t372 151q130 0 242 -58t184 -158h-338l-140 -240l140 -240h402q-56 -148 -190 -241t-300 -93z" />
    <glyph glyph-name="E" unicode="E" 
d="M1664 768h-512v512h-256v-512h-512v-256h512v-512h256v512h512v256zM2048 1664v-2048h-2048v2048h2048z" />
    <glyph glyph-name="F" unicode="F" 
d="M678 242l-224 866l-236 -866h460zM1830 250l-224 866l-236 -866h460zM1600 -248q-186 0 -317 138t-131 334l306 898h-870l308 -906q0 -196 -131 -334t-317 -138t-317 138t-131 334l310 906h-172v168h228l82 238l82 -238h986l84 246l84 -246h246v-168h-188l306 -898
q0 -196 -131 -334t-317 -138z" />
    <glyph glyph-name="G" unicode="G" 
d="M665 1310q-123 0 -210 -87t-87 -209t87 -209t210 -87t209 87t86 209t-86 209t-209 87zM892 1664l1156 -1156l-892 -892l-1156 1156l4 450l-4 442h892z" />
    <glyph glyph-name="H" unicode="H" 
d="M856 84l-388 388l-198 -586zM1688 948l176 178l-354 354l-178 -176zM2048 1132l-1244 -1246l-804 -270l272 804l1244 1244z" />
    <glyph glyph-name="I" unicode="I" 
d="M1320 240h230q56 0 97 -41t41 -99v-280q0 -58 -40 -99t-98 -41h-650q-58 0 -99 41t-41 99v942h-418l686 838l710 -838h-418v-522z" />
    <glyph glyph-name="J" unicode="J" 
d="M1664 -128v1024h-512v512h-768v-1536h1280zM1792 -256h-1536v1792h916l502 -506l118 -128v-1158z" />
    <glyph glyph-name="K" unicode="K" 
d="M1536 256v-128h-1024v128h1024zM1536 640v-128h-1024v128h1024zM1024 1024v-128h-512v128h512zM1664 -128v1024h-512v512h-768v-1536h1280zM1792 -256h-1536v1792h916l502 -506l118 -128v-1158z" />
    <glyph glyph-name="L" unicode="L" 
d="M811 186q173 0 173 127q0 61 -30 90t-100 43l-54 12q-104 24 -152 72q-46 50 -46 139t67 149t168 60t201 -40v-102q-94 60 -174 60t-123 -34t-43 -87t27 -78t103 -43l52 -12q106 -24 154 -77t48 -152t-65 -154t-178 -55t-227 44v108q108 -70 199 -70zM1664 896h-512v512
h-768v-1536h1280v1024zM1792 -256h-1536v1792h916l124 -138l378 -392l118 -128v-1134z" />
    <glyph glyph-name="M" unicode="M" 
d="M888 412v418h-190v86h292v-504q0 -140 -53 -199t-164 -59t-207 46v118q86 -82 194 -82q72 0 100 36t28 140zM1664 896h-512v512h-768v-1536h1280v1024zM1792 -256h-1536v1792h896l128 -108l384 -362l128 -128v-1194z" />
    <glyph glyph-name="N" unicode="N" 
d="M1152 768v-128h-116l-12 -18v-110h-70l-74 -116l84 -140h60v-100l18 -28h110v-128h-142l-72 128h-42v74l-68 120l-60 -98v-96h-60l-68 -112v-16h-128v128h90l38 60v68h42l90 140l-72 116h-60v96l-20 32h-108v128h152l62 -128h42v-72l60 -102l68 114v60h36l62 128h158z
M1664 896h-512v512h-768v-1536h1280v1024zM1792 -256h-1536v1792h896l640 -640v-1152z" />
    <glyph glyph-name="O" unicode="O" 
d="M1026 678v140l384 -322v-126l-384 -320v140l308 242zM898 818v-140l-310 -246l310 -242v-140l-384 320v126zM1664 896h-512v512h-768v-1536h1280v1024zM1792 -256h-1536v1792h898l128 -104l382 -358l128 -128v-1202z" />
    <glyph glyph-name="P" unicode="P" 
d="M1808 896h-1568v-896h1568v896zM1920 1152v-1280h-1792v1536h914l244 -256h634z" />
    <glyph glyph-name="Q" unicode="Q" 
d="M896 512h-384v256h384v384h256v-384h384v-256h-384v-384h-256v384zM1792 1408h-1536v-1536h1536v1536zM1920 1536v-1792h-1792v1792h1792z" />
    <glyph glyph-name="R" unicode="R" 
d="M1536 512h-1024v256h1024v-256zM1792 1408h-1536v-1536h1536v1536zM1920 1536v-1792h-1792v1792h1792z" />
    <glyph glyph-name="S" unicode="S" 
d="M1030 1538l78 -108l556 -720l-374 6l-2 -786q0 -52 -27 -91t-87 -65t-122 -26l-28 -2q-164 0 -234 97q-28 39 -28 91l8 776l-386 6z" />
    <glyph glyph-name="T" unicode="T" 
d="M1030 -258l-646 820l386 8l-8 776q0 52 28 91q45 63 143 85q54 12 91 12l28 -2q63 0 122 -26q114 -50 114 -156l2 -788l374 8l-556 -720z" />
    <glyph glyph-name="U" unicode="U" 
d="M126 646l108 78l720 556l-8 -374l788 -2q52 0 91 -27t65 -87t26 -122l2 -28q0 -164 -97 -234q-39 -28 -91 -28l-776 10l-8 -388z" />
    <glyph glyph-name="V" unicode="V" 
d="M314 904h788l-8 376l720 -556l108 -78l-820 -646l-8 386l-776 -10q-52 0 -91 29q-64 48 -85 143q-12 55 -12 92l2 28q0 63 26 122q50 114 156 114z" />
    <glyph glyph-name="W" unicode="W" 
d="M824 102l104 104l106 -104l-106 -106zM1034 312l104 104l106 -104l-106 -106zM614 312l104 104l106 -104l-106 -106zM184 -200q-104 104 -152 219t-25 238t125 225l734 -734q-102 -102 -225 -125t-238 25t-219 152zM1244 522l104 104l106 -104l-106 -106zM824 522
l104 104l106 -104l-106 -106zM404 522l104 104l106 -104l-106 -106zM1454 732l104 104l106 -104l-106 -106zM1034 732l104 104l106 -104l-106 -106zM614 732l104 104l106 -104l-106 -106zM1244 942l104 104l106 -104l-106 -106zM824 942l104 104l106 -104l-106 -106z
M1034 1152l104 104l106 -104l-106 -106zM1916 798l-734 734q102 102 225 124t238 -25t219 -151t151 -220t25 -238t-124 -224z" />
    <glyph glyph-name="X" unicode="X" 
d="M606 1182q-106 0 -142 18t-94 40t-73 33t-30 14t-19 7q-26 30 -80 54q-20 12 -82 59t-72 57t-11 18t3 13t13 12t18 17t67 27t131 34t208 17t223 -30q155 -52 248 -197q27 -43 64 -61q32 0 46 -14t4 -66t15 -156t43 -140q95 -214 235 -375q27 -31 35 -41t13 -16l15 -18
q10 -12 17 -17t18 -13t17 -8h16q10 4 28 28l30 40q12 16 34 28q48 32 116 38q128 12 228 -84t144 -230v-4q2 -2 2 -4l2 -6q42 -156 -33 -269t-183 -165q-150 -70 -269 -35t-203 129q-128 136 -115 279q9 101 105 166q28 19 39 36t9 24t-14 19t-26 27t-22 23
q-216 235 -314 506q-28 114 -41 132t-20 20q-17 5 -67 -78q-160 -252 -170 -612q-2 -40 6 -51t61 -5t107 -12q130 -42 170 -172t-26 -300q-54 -128 -153 -186t-287 -32q-140 18 -232 144q-52 72 -72 171t3 199t82 147t145 61q67 3 93 -3q25 -7 36 -3t19 13t11 24q5 25 5 54
v21q8 56 8 84q4 28 4 40l-2 28q12 48 14 87t19 89l25 74q8 24 19 41t30 68t24 60t19 25q35 40 30 84q-22 -2 -90 -14t-174 -12z" />
    <glyph glyph-name="Y" unicode="Y" 
d="M1732 768q32 0 54 -38t22 -90t-22 -90t-54 -38h-384l272 -272q22 -20 12 -63t-48 -80t-80 -48t-64 11l-272 272v-384q0 -32 -38 -54t-90 -22t-90 22t-38 54v384l-272 -272q-20 -22 -62 -12t-80 48t-49 80t11 64l272 272h-384q-32 0 -54 38t-22 90t22 90t54 38h384
l-272 272q-22 22 -11 64t49 80t80 48t62 -12l272 -272v384q0 32 38 54t90 22t90 -22t38 -54v-384l272 272q22 22 64 11t80 -48t48 -80t-12 -63l-272 -272h384z" />
    <glyph glyph-name="Z" unicode="Z" 
d="M130 30q-4 340 248 571t710 307l24 386q152 -122 420 -340t390 -316q-303 -246 -501 -409q-199 -163 -297 -243q-14 174 -34 382q-308 4 -542 -68t-418 -270z" />
    <glyph glyph-name="a" unicode="a" 
d="M410 842q260 0 311 -3t75 16t38 67q137 475 192 614q158 -518 179 -592t45 -91t74 -15q326 6 596 -12l-176 -120q-258 -172 -320 -210t-38 -102q138 -342 224 -628l-588 412q-240 -178 -584 -434q162 502 179 556t26 80t13 34t5 23t0 17t-10 13t-17 14t-30 18t-183 125
t-293 218h282z" />
    <glyph glyph-name="b" unicode="b" 
d="M1666 712l-180 180l-544 -542l-270 272l-182 -182l452 -452zM1018 1224q278 0 475 42t197 100t-197 100t-475 42t-475 -42t-197 -100t197 -100t475 -42zM1024 1664q372 0 634 -75t262 -181v-1476q0 -70 -118 -143t-330 -123t-448 -50q-354 0 -625 103t-271 213v1476
q0 106 262 181t634 75z" />
    <glyph glyph-name="c" unicode="c" 
d="M1152 402v640h-256v-640h-414l542 -542l544 542h-416zM1025 1238q279 0 475 41t196 100t-197 101t-475 42t-475 -42t-197 -101t197 -100t476 -41zM1024 1664q372 0 634 -75t262 -181v-1476q0 -110 -271 -213t-625 -103t-625 103t-271 213v1476q0 106 262 181t634 75z" />
    <glyph glyph-name="d" unicode="d" 
d="M1536 464h-640v464l-542 -544l542 -544v368h640v256zM1025 1238q279 0 475 41t196 100t-197 101t-475 42t-475 -42t-197 -101t197 -100t476 -41zM1024 1664q372 0 634 -75t262 -181v-1476q0 -70 -118 -143t-330 -123t-448 -50q-354 0 -625 103t-271 213v1476
q0 106 262 181t634 75z" />
    <glyph glyph-name="e" unicode="e" 
d="M652 980l-252 70v-1088l252 -70v1088zM1024 1238q274 0 466 41t192 100t-193 101t-465 42t-465 -42t-193 -101t192 -100t466 -41zM1024 1664q362 0 620 -75t258 -181v-1476q0 -110 -265 -213t-613 -103t-613 103t-265 213v1476q0 106 258 181t620 75z" />
    <glyph glyph-name="f" unicode="f" 
d="M1882 642q0 270 -193 464t-453 194t-445 -160t-221 -400h422l-496 -486l-496 486h402q38 308 271 517t562 209t571 -242t242 -582t-233 -579t-567 -249v166q264 10 449 201t185 461z" />
    <glyph glyph-name="g" unicode="g" 
d="M1568 1414q-108 0 -184 -76t-76 -184t76 -184t184 -76t185 76t77 184t-77 184t-185 76zM1608 658q156 0 267 -110t111 -265t-109 -265t-265 -110q-56 0 -112 18q-116 -146 -279 -228t-355 -82q-340 0 -575 241t-235 585q0 308 231 546t529 276v400l384 -426
q32 146 130 238t257 92t282 -122t123 -293t-118 -291t-280 -120t-270 100t-130 252l-378 -422v424q-200 -37 -392 -220q-88 -84 -145 -199t-57 -235q0 -276 178 -468t448 -192q306 0 500 230q-116 112 -116 269t110 267t266 110z" />
    <glyph glyph-name="h" unicode="h" 
d="M1226 -62q0 84 -60 143t-144 59t-143 -59t-59 -143t59 -144t143 -60t144 60t60 144zM1718 -134q84 0 143 60t59 144t-59 143t-143 59t-143 -59t-59 -143t59 -144t143 -60zM328 -134q84 0 143 60t59 144t-59 143t-143 59t-143 -59t-59 -143t59 -144t143 -60zM1718 390
q134 0 228 -94t94 -227t-93 -227t-226 -94t-225 94t-92 227t108 235l-360 614q-8 -2 -2 -8v-660q96 -24 155 -111t59 -210t-110 -218t-245 -95t-235 95t-100 217t62 210t158 112v660q0 8 -8 10l-344 -610q108 -94 108 -234t-94 -234t-228 -94t-227 94t-93 227t93 227t227 94
q52 0 86 -10l370 608q-142 116 -142 284t111 280t269 112t270 -112t112 -283t-150 -287l370 -604q44 12 94 12z" />
    <glyph glyph-name="i" unicode="i" 
d="M734 -28q0 92 -66 158t-159 66t-159 -66t-66 -158t66 -158t159 -66t159 66t66 158zM1532 314q92 0 158 65t66 159t-66 159t-158 65t-158 -65t-66 -159t66 -159t158 -65zM1545 894q135 0 239 -104t104 -251t-104 -252t-243 -105t-237 83t-122 209q-168 10 -349 124
t-257 210l4 -488q124 -24 205 -122t81 -236t-104 -242t-250 -104t-249 104t-103 238t93 235t199 127v640q-106 26 -199 127t-93 235t101 238t248 104t251 -104t104 -252q0 -100 -51 -183t-137 -129q12 -142 158 -245t356 -119q32 114 126 188t229 74z" />
    <glyph glyph-name="j" unicode="j" 
d="M1021 -384q-339 0 -581 242t-242 571t209 563t517 270v402l484 -496l-484 -496v422q-240 -36 -400 -221t-160 -445t194 -453t464 -193t461 185t201 449h166q-10 -334 -250 -567t-579 -233z" />
    <glyph glyph-name="k" unicode="k" 
d="M1408 128h512v-512h-512v512zM1920 896v-512h-512v512h512zM512 640h640v-128h-640v-640h640v-128h-768v1152h128v-256zM1792 1280h-768v128h768v-128zM640 1152h-512v512h512v-512z" />
    <glyph glyph-name="l" unicode="l" 
d="M640 1152l768 -512l-768 -512v1024z" />
    <glyph glyph-name="m" unicode="m" 
d="M1536 1024l-512 -768l-512 768h1024z" />
    <glyph glyph-name="n" unicode="n" 
d="M736 222h-18v-498h-248v1364h-342l456 466l458 -466h-324v-390q113 57 207 93q93 37 120 44t82 22q136 37 335 43v386l458 -468l-458 -468v354q-358 -24 -542 -156t-184 -326z" />
    <glyph glyph-name="o" unicode="o" 
d="M1664 1068l-426 -428l426 -426l-214 -214l-426 428l-426 -428l-214 214l426 426l-426 428l214 212l426 -426l426 426z" />
    <glyph glyph-name="p" unicode="p" 
d="M1792 -256h-1536v1792h896l640 -634v-1158zM1152 896v-128h128v-128h128v-128h-384v-512h-128v512h-384v128h128v128h128v128h128v128h128v-128h128zM1152 896v512h-768v-1536h1280v1024h-512z" />
    <glyph glyph-name="q" unicode="q" 
d="M1152 512h256v-256h-256v-256h-256v256h-256v256h256v256h256v-256zM1664 896h-512v512h-768v-1536h1280v1024zM1792 -256h-1536v1792h896l640 -640v-1152z" />
    <glyph glyph-name="r" unicode="r" 
d="M1024 512h384v-128h-128v-128h-128v-128h-128v-128h-128v128h-128v128h-128v128h-128v128h384v512h128v-512zM1664 896h-512v512h-768v-1536h1280v1024zM1792 -256h-1536v1792h898l638 -634v-1158z" />
    <glyph glyph-name="s" unicode="s" 
d="M662 210l-218 216l72 74l290 -290l-290 -290l-72 72zM1920 1152h-1792v-1408h1792v1408zM2048 1664v-2048h-2048v2048h2048z" />
    <glyph glyph-name="t" unicode="t" 
d="M960 538l272 272l90 -90l-272 -272l272 -272l-90 -90l-272 272l-272 -272l-90 90l272 272l-272 272l90 90zM1664 896h-512v512h-768v-1536h1280v1024zM1792 -256h-1536v1792h896l640 -640v-1152z" />
    <glyph glyph-name="u" unicode="u" 
d="M1536 1152v-828l-350 348l-548 -546l-112 120l544 548l-348 358h814zM1664 1280h-1280v-1280h1280v1280zM1792 1408v-1536h-1536v1536h1536z" />
    <glyph glyph-name="v" unicode="v" 
d="M724 1280q80 0 136 -56t56 -136t-56 -136t-136 -56t-136 56t-56 136t56 136t136 56zM1664 896h-512v512h-768v-1030l200 192l248 -240l394 398l438 -448v616zM1792 -256h-1536v1792h916l502 -512l118 -128v-1152z" />
    <glyph glyph-name="w" unicode="w" 
d="M2048 302q0 -150 -110 -275t-274 -149v-6h-512v384h388l-516 516l-516 -516h388v-384h-512v6q-164 24 -274 149t-110 279t79 267t205 163q-28 88 -28 160q0 212 150 362t362 150q154 0 279 -83t187 -217q82 44 174 44q160 0 272 -112t112 -272q0 -14 -4 -42
q118 -54 189 -164t71 -260z" />
    <glyph glyph-name="y" unicode="y" 
d="M896 384h256v-256h-256v256zM896 1152h256v-640h-256v640zM1024 -256q370 0 633 263t263 633t-263 633t-633 263t-633 -263t-263 -633t263 -633t633 -263zM1024 1664q424 0 724 -300t300 -724t-300 -724t-724 -300t-724 300t-300 724t300 724t724 300z" />
    <glyph glyph-name="z" unicode="z" 
d="M1536 980l-342 -340l342 -342l-170 -170l-342 340l-342 -340l-170 170l342 342l-342 340l170 172l342 -342l342 342zM1024 -256q370 0 633 263t263 633t-263 633t-633 263t-633 -263t-263 -633t263 -633t633 -263zM1024 1664q424 0 724 -300t300 -724t-300 -724
t-724 -300t-724 300t-300 724t300 724t724 300z" />
    <glyph glyph-name="newGlyph" horiz-adv-x="1200" 
 />
    <glyph glyph-name="newGlyph.002" horiz-adv-x="1200" 
 />
    <glyph glyph-name="newGlyph.003" horiz-adv-x="1200" 
 />
    <glyph glyph-name="newGlyph.004" horiz-adv-x="1200" 
 />
    <glyph glyph-name="newGlyph.005" horiz-adv-x="1200" 
 />
  </font>
</defs>
</svg>
